Full Metal Jacket (PSP + Ipod touch + Zune)

Type:Video > Handheld
Size:439.19 MB
Tag(s):fullmetaljacketpspipodzune
Spoken language(s):English
Uploaded:Jun 22nd, 2010
By:on.off.onTrusted
Seeders:1
Leechers:0
Comments7
Info Hash:9a18d60b8a4ce472fb0662bdcf75c05c82c12b7d
Full Metal Jacket (PSP + Ipod touch + Zune) picture
Full Metal Jacket

source:

Full.Metal.Jacket.REMASTERED.1987.720p.HDDVD.x264-SEPTiC
www.imdb.com/title/tt0093058/

ID : 1
Format : AVC
Format/Info : Advanced Video Codec
Format profile : [email protected]
Format settings, CABAC : No
Format settings, ReFrames : 3 frames
Codec ID : avc1
Codec ID/Info : Advanced Video Coding
Duration : 1h 56mn
Bit rate mode : Variable
Bit rate : 395 Kbps
Width : 480 pixels
Height : 272 pixels
Display aspect ratio : 16:9
Frame rate mode : Variable
Frame rate : 23.976 fps
Minimum frame rate : 23.810 fps
Maximum frame rate : 24.390 fps
Color space : YUV
Chroma subsampling : 4:2:0
Bit depth : 8 bits
Scan type : Progressive
Bits/(Pixel*Frame) : 0.126
Stream size : 329 MiB (75%)
Writing library : x264 core 79

ID : 2
Format : AAC
Format/Info : Advanced Audio Codec
Format version : Version 4
Format profile : LC
Format settings, SBR : No
Codec ID : 40
Duration : 1h 56mn
Bit rate mode : Variable
Bit rate : 128 Kbps
Maximum bit rate : 181 Kbps
Channel(s) : 2 channels
Channel positions : Front: L R
Sampling rate : 48.0 KHz
Stream size : 107 MiB (24%)
Language : English















PLEASE LET THE TORRENT SEED AND SHARE IT WITH ALL YOU KNOW!

Let me know what I can do to be your trusted source of Handheld videos.





-OOO
Files:

Comments

MANY THANKS

doubletop1974Jun 23rd, 2010

yes another exellent classic this was on tv the other night reminded me how much i like this movie Stanley Kubrick good director thanks again mate luv these small files good quality is well

 vicerockJun 24th, 2010

@vicerock thx mate =) I have platoon re-encoded from 1080p, ill upload that once the captcha is back online!

 on.off.onJun 24th, 2010

ok on.off.on i,ve got Platoon & Hamburger hill my favourite watch hamburger hill over & over again. Lost my copy of Apocalypse Now which is a great classic nam film specialy like the part were they are in the choppers & i think its wagner playing in the backround and i think its robert duvall says how it scare's the shit out oif the nva good movie o well thanks again on.off.on i dl this after:)

 vicerockJun 24th, 2010

im getting apocalypse now redux now for u vicerock :)

 on.off.onJun 25th, 2010

thanks on.off.on nearly finished dl this going to burn to disc and thanks and then watch it o and thanks for sorting apocolypse now mate have,nt seen the redux version look forward to watching it i really appreciate it mate nice one:)

 vicerockJun 25th, 2010

I freakin' love this movie! Thanks so much, will seed forever.

arfmontalAug 12th, 2010