Brooklyn's Finest (PSP + Ipod touch + Zune)

Type:Video > Handheld
Size:n/a
Tag(s):brooklynsfinestpspipodzune
Uploaded:Jan 1st, 1970
By:
Seeders:1
Leechers:2
Comments10
Info Hash:02a3384b94130f07aa464f3fcb46501bc2c597f9
Brooklyn's Finest (PSP + Ipod touch + Zune) picture
Brooklyn's Finest

source:

Brooklyns.Finest.720p.Bluray.x264-CBGB
www.imdb.com/title/tt1210042/


ID : 1
Format : AVC
Format/Info : Advanced Video Codec
Format profile : [email protected]
Format settings, CABAC : No
Format settings, ReFrames : 3 frames
Codec ID : avc1
Codec ID/Info : Advanced Video Coding
Duration : 2h 12mn
Bit rate mode : Variable
Bit rate : 395 Kbps
Width : 480 pixels
Height : 208 pixels
Display aspect ratio : 2.35:1
Frame rate mode : Variable
Frame rate : 23.976 fps
Minimum frame rate : 23.810 fps
Maximum frame rate : 24.390 fps
Color space : YUV
Chroma subsampling : 4:2:0
Bit depth : 8 bits
Scan type : Progressive
Bits/(Pixel*Frame) : 0.165
Stream size : 375 MiB (75%)
Writing library : x264 core 79

ID : 2
Format : AAC
Format/Info : Advanced Audio Codec
Format version : Version 4
Format profile : LC
Format settings, SBR : No
Codec ID : 40
Duration : 2h 12mn
Bit rate mode : Variable
Bit rate : 128 Kbps
Maximum bit rate : 254 Kbps
Channel(s) : 2 channels
Channel positions : Front: L R
Sampling rate : 48.0 KHz
Stream size : 121 MiB (24%)
Language : English












PLEASE LET THE TORRENT SEED AND SHARE IT WITH ALL YOU KNOW!

Let me know what I can do to be your trusted source of Handheld videos.





-OOO
Files:

Comments

I was wondering what you used to gather the video info.

 The_Day_WalkerJun 24th, 2010

try mediainfo http://mediainfo.sourceforge.net/en

 on.off.onJun 24th, 2010

Thank you for getting back to me so quick! Also do you use encode-handheld? http://thepiratebay.se/torrent/5403468/encode-handheld-5.3.pl/ If not, what do you use?

 The_Day_WalkerJun 24th, 2010

I use something else... ;)

 on.off.onJun 24th, 2010

May I ask what you use?

 The_Day_WalkerJun 24th, 2010

Perhaps, MeGUI ?

 The_Day_WalkerJun 24th, 2010

no.. its my little secret =)

 on.off.onJun 24th, 2010

Okay. Well, thanks for your help. (^_^)

 The_Day_WalkerJun 24th, 2010

=) ur welcome dude! and thanks for dl'ing

 on.off.onJun 24th, 2010

THANKS GOOD JOB I REALLY APPRECIATE THAT YOU INCLUDE SUBTITLES AS WELL I HOPE THIS IS THE NORM FROM NOW ON THANKS

blackestsheepJul 29th, 2012