The Beacon (PSP + Ipod touch + Zune)

Type:Video > Handheld
Size:373.89 MB
Tag(s):thebeaconpspipodzuneh264
Info:IMDB
Spoken language(s):English
Uploaded:Jun 28th, 2010
By:on.off.onTrusted
Seeders:0
Leechers:0
Comments1
Info Hash:943607c64f539fe399a8b2b3652060ab7776f27e
The Beacon (PSP + Ipod touch + Zune) picture
The Beacon 
www.imdb.com/title/tt1190910/

Source :

the.beacon.2009.1080p.bluray.x264-thugline


Info :

ID : 1
Format : AVC
Format/Info : Advanced Video Codec
Format profile : [email protected]
Format settings, CABAC : No
Format settings, ReFrames : 3 frames
Codec ID : avc1
Codec ID/Info : Advanced Video Coding
Duration : 1h 38mn
Bit rate mode : Variable
Bit rate : 400 Kbps
Width : 480 pixels
Height : 272 pixels
Display aspect ratio : 16:9
Frame rate mode : Variable
Frame rate : 23.976 fps
Minimum frame rate : 23.810 fps
Maximum frame rate : 24.390 fps
Color space : YUV
Chroma subsampling : 4:2:0
Bit depth : 8 bits
Scan type : Progressive
Bits/(Pixel*Frame) : 0.128
Stream size : 281 MiB (75%)
Writing library : x264 core 79

ID : 2
Format : AAC
Format/Info : Advanced Audio Codec
Format version : Version 4
Format profile : LC
Format settings, SBR : No
Codec ID : 40
Duration : 1h 38mn
Bit rate mode : Variable
Bit rate : 128 Kbps
Maximum bit rate : 212 Kbps
Channel(s) : 2 channels
Channel positions : Front: L R
Sampling rate : 48.0 KHz
Stream size : 89.9 MiB (24%)
Language : English

Screens :








PLEASE LET THE TORRENT SEED AND SHARE IT WITH ALL YOU KNOW!

Let me know what I can do to be your trusted source of Handheld videos.
thepiratebay.se/user/on.off.on/ -OOO
Files:

Comments

please keep the torrents alive.. if u dont I cant share new stuff.. very simple ;-)

 on.off.onJul 1st, 2010