Alien Quadrilogy (PSP + Ipod touch + Zune)

Type: >
Size:n/a
Uploaded:Jan 1st, 1970
By:on.off.onTrusted
Seeders:0
Leechers:0
Comments18
Info Hash:5ed4aa029226c995818988c0f6f52f5261c258c4
Alien Quadrilogy

www.imdb.com/title/tt0078748/

www.imdb.com/title/tt0090605/

www.imdb.com/title/tt0103644/

www.imdb.com/title/tt0118583/





Source :

thepiratebay.se/torrent/4674934/Alien.Quadrilogy.720p.x264.HD-BiTs


Alien.DirCut.1979.DTheater.720p.x264.DTS-iLL


Aliens.PROPER.HDTV.720p.x264.AC3-5.1-DiC


Alien.3.720p.HDTV.XVID-ANON


Alien.Resurrection.720p.HDTV.XVID-ANON






Info on movie Aliens (2):


ID : 1
Format : AVC
Format/Info : Advanced Video Codec
Format profile : [email protected]
Format settings, CABAC : No
Format settings, ReFrames : 3 frames
Codec ID : avc1
Codec ID/Info : Advanced Video Coding
Duration : 2h 17mn
Bit rate mode : Variable
Bit rate : 400 Kbps
Width : 480 pixels
Height : 272 pixels
Display aspect ratio : 16:9
Frame rate mode : Variable
Frame rate : 23.976 fps
Minimum frame rate : 23.810 fps
Maximum frame rate : 24.390 fps
Color space : YUV
Chroma subsampling : 4:2:0
Bit depth : 8 bits
Scan type : Progressive
Bits/(Pixel*Frame) : 0.128
Stream size : 392 MiB (75%)
Writing library : x264 core 79


ID : 2
Format : AAC
Format/Info : Advanced Audio Codec
Format version : Version 4
Format profile : LC
Format settings, SBR : No
Codec ID : 40
Duration : 2h 17mn
Bit rate mode : Variable
Bit rate : 128 Kbps
Maximum bit rate : 161 Kbps
Channel(s) : 2 channels
Channel positions : Front: L R
Sampling rate : 48.0 KHz
Stream size : 126 MiB (24%)
Language : English



Screens:














PLEASE LET THE TORRENT SEED AND SHARE IT WITH ALL YOU KNOW!


Let me know what I can do to be your trusted source of Handheld videos.

thepiratebay.se/user/on.off.on/ -OOO
Files:

Comments