Limitless 2011 TS READNFO XViD v2 - IMAGiNE

Type:Video > Movies
Size:n/a
Info:IMDB
Uploaded:Jan 1st, 1970
By:DibyaTPBVIP
Seeders:0
Leechers:0
Comments4
Info Hash:a1cab49c651a97dadca220acabaa53517abfa0d8
www.thedesiadda.com/


*********** **** **** *** ******** *********** **** *** **********
*+* +*+*+* *+*+*+ *+* *+* *+* *+* *+* *+*+* *+* *+*
+*+ +*+ +*+*+ +*+ +*+ +*+ +*+ +*+ *+*+*+ +*+ +*+
+$+ +$+ +*+ +$+ +$++*++$++* *$* +$+ +$+ +*+ +$+ +$++*++$
+$+ +$+ +$+ +$+ +$+ +$+ +$+$ +$+ +$+ +$+$+$ +$+
$+$ $+$ $+$ $+$ $+$ $+$ $+$ $+$ $+$ $+$+$ $+$
$$$$$$$$$$$ $$$ $$$ $$$ $$$ $$$$$$$$ $$$$$$$$$$$ $$$ $$$$ $$$$$$$$$$





Another Fine Release Brought to you from - IMAGiNE



********************************************************************************************************************
Limitless 2011 TS READNFO XViD v2 - IMAGiNE
********************************************************************************************************************


Ripper ...........: IMAGiNE IMDB Rating.......:7.1/10
Video Codec.......: XVID Release Date......:19/03/11
Audio Codec.......:MP3 Theatre Date......:18/03/11
Audio Bitrate.....:128 Runtime.......:1h 31mn
Subtitles.........:NIL Language..........:ENGLISH
Resolution...... 720 x 288 IMDb URL..........:http://www.imdb.com/title/tt1219289/



DETAILS:


Video
ID : 0
Format : MPEG-4 Visual
Format profile : Advanced Simple@L5
Format settings, BVOP : Yes
Format settings, QPel : No
Format settings, GMC : No warppoints
Format settings, Matrix : Default (MPEG)
Muxing mode : Packed bitstream
Codec ID : XVID
Codec ID/Hint : XviD
Duration : 1h 31mn
Bit rate : 1 960 Kbps
Width : 720 pixels
Height : 288 pixels
Display aspect ratio : 2.500
Frame rate : 25.000 fps
Resolution : 24 bits
Colorimetry : 4:2:0
Scan type : Progressive
Bits/(Pixel*Frame) : 0.378
Stream size : 1.25 GiB (93%)
Writing library : XviD 61


Audio
ID : 1
Format : MPEG Audio
Format version : Version 1
Format profile : Layer 3
Codec ID : 55
Codec ID/Hint : MP3
Duration : 1h 31mn
Bit rate mode : Constant
Bit rate : 128 Kbps
Channel(s) : 2 channels
Sampling rate : 44.1 KHz
Resolution : 16 bits
Video delay : 15ms
Stream size : 83.9 MiB (6%)
Alignment : Split accross interleaves
Interleave, duration : 40 ms (1.00 video frame)
Interleave, preload duration : 500 ms




SOURCES:


VIDEO:Oblasti.tmy.2011.D.TS.ELEKTRI4KA ................. Thanks
AUDIO:Thanks m8ty


NOTES:


IMAGiNE bringing you another release.......... Limitless 2011


Here we go we a half decent TS of this release.The video isn't the strongest but is more than watchable
unless you only want really high Q.
The video source had issues with the normal stuff,colouring,brightness etc....so we made a script to fix it the
best we could.
Audio was sweet .....just needed to be synced,but was a pain to do,but go there in the end.
Now the video has a to chunks of video missing but only 1x 4 secs and 1 x3 secs so not much .....however we also
removed 2mins 26secs off the start due to no audio (long story ) .....we were going to leave it with the russian audio
but didn't see much point as 99% of us wouldn't have a clue what was being said.....
But in all honestly you would never guess it was missing becasuse of the way it starts ......trust me,still worth the look.


Enjoy folks


SCREENS:


GREETS:


FLAWL3SS,ViSiON,Rx,ELEKTRI4KA,Serenity,Autotron,CiNEDUB,CRYS,T0XiCiNK ,
And to all the other p2p grps past and present


Looking for these,syncers,cammers,audio,silver supplier.....Have anything to offer????......
Contact us [email protected]
Files:

Comments

Screenshot compaRISION ================= http://screenshotcomparison.com/comparison/37171

 DibyaTPBMar 20th, 2011

From the image this guy provides: http://thepiratebay.se/torrent/6257388/Limitless.2011.TS.READNFO.XViD-IMAGiNE his looks better, but idk haven't finished the download yet. Just letting you know.

JordanTPBMar 20th, 2011

Wait nevermind I'm a retard yours is way better.

JordanTPBMar 20th, 2011

Very Good Copy. Thanks Alot. i'd say v:8 A:9

JuggaloLashMar 21st, 2011