Apt.Pupil.1998.720p.BRRip.XviD.AC3-PsychoLogic

Type:Video > Highres - Movies
Size:n/a
Tag(s):720pBRRipXviDAC3
Info:IMDB
Spoken language(s):anglais
Uploaded:Jan 1st, 1970
By:PsychoLogic
Seeders:0
Leechers:1
Comments2
Info Hash:3aa475ccad44c07878662a7e6d2c1768116fb0b3
Release Information:


Apt.Pupil.1998.720p.BRRip.XviD.AC3-PsychoLogic


Source : Apt.Pupil.1998.720p.BluRay.X264-AMIABLE
Subtitles : Danish, English, Romanian
Language : English
Encoded By : PsychoLogic
Sample Included : Yes


Movie Information : www.imdb.com/title/tt0118636/
Genre : Drama | Thriller
Director : Bryan Singer
Cast : Ian McKellen, Brad Renfro and Joshua Jackson
Plot : A boy blackmails his neighbour after suspecting him to be a Nazi war criminal.


General
Format : AVI
Format/Info : Audio Video Interleave
File size : 1.96 GiB
Duration : 1h 51mn
Overall bit rate : 2 528 Kbps
Writing application : VirtualDubMod 1.5.10.2 (build 2542/release)
Writing library : VirtualDubMod build 2542/release


Video
ID : 0
Format : MPEG-4 Visual
Format profile : Advanced Simple@L5
Format settings, BVOP : 2
Format settings, QPel : No
Format settings, GMC : No warppoints
Format settings, Matrix : Default (H.263)
Codec ID : XVID
Codec ID/Hint : XviD
Duration : 1h 51mn
Bit rate : 2 070 Kbps
Width : 1 280 pixels
Height : 528 pixels
Display aspect ratio : 2.40:1
Frame rate : 23.976 fps
Color space : YUV
Chroma subsampling : 4:2:0
Bit depth : 8 bits
Scan type : Progressive
Compression mode : Lossy
Bits/(Pixel*Frame) : 0.128
Stream size : 1.61 GiB (82%)
Writing library : XviD 1.2.1 (UTC 2008-12-04)


Audio
ID : 1
Format : AC-3
Format/Info : Audio Coding 3
Mode extension : CM (complete main)
Codec ID : 2000
Duration : 1h 51mn
Bit rate mode : Constant
Bit rate : 448 Kbps
Channel(s) : 6 channels
Channel positions : Front: L C R, Side: L R, LFE
Sampling rate : 48.0 KHz
Bit depth : 16 bits
Compression mode : Lossy
Stream size : 356 MiB (18%)
Alignment : Split accross interleaves
Interleave, duration : 42 ms (1.00 video frame)
Interleave, preload duration : 500 ms
Files:

Comments

thx

spit3825Aug 14th, 2011

clean copy

spit3825Aug 16th, 2011