War.Horse.2011.DVDSCR.XVID.Une-CM8

Type:Video > Movies
Size:706.42 MB
Info:IMDB
Uploaded:Jan 8th, 2012
By:LegendETVIP
Seeders:68
Leechers:8
Comments165
Info Hash:cece42a9aecd669bec0f3799cea49caead38becd
[center]


.



War.Horse.2011.DVDSCR.XVID.Une-CM8



CM8 Doing it right the first time



Ok just a little something to keep ya happy
Had to be a small rip or it would take me a week to get it on my seeder
The masters will be working on better more suitable encodes for you quality nuts out there
Has the occasional property of logo
Enjoy



www.imdb.com/title/tt1568911/



General
Complete name : War.Horse.2011.DVDSCR.XVID.Une-CM8.avi
Format : AVI
Format/Info : Audio Video Interleave
File size : 701 MiB
Duration : 2h 26mn
Overall bit rate mode : Variable
Overall bit rate : 668 Kbps
Writing application : VirtualDubMod 1.5.4.1 (build 2178/release)
Writing library : VirtualDubMod build 2178/release


Video
ID : 0
Format : MPEG-4 Visual
Format profile : Advanced Simple@L5
Format settings, BVOP : 1
Format settings, QPel : No
Format settings, GMC : No warppoints
Format settings, Matrix : Custom
Codec ID : XVID
Codec ID/Hint : XviD
Duration : 2h 26mn
Bit rate : 538 Kbps
Width : 576 pixels
Height : 240 pixels
Display aspect ratio : 2.40:1
Frame rate : 23.976 fps
Color space : YUV
Chroma subsampling : 4:2:0
Bit depth : 8 bits
Scan type : Progressive
Compression mode : Lossy
Bits/(Pixel*Frame) : 0.162
Stream size : 564 MiB (81%)
Writing library : XviD 1.2.1 (UTC 2008-12-04)


Audio
ID : 1
Format : MPEG Audio
Format version : Version 1
Format profile : Layer 3
Mode : Joint stereo
Mode extension : MS Stereo
Codec ID : 55
Codec ID/Hint : MP3
Duration : 2h 26mn
Bit rate mode : Variable
Bit rate : 118 Kbps
Nominal bit rate : 128 Kbps
Channel(s) : 2 channels
Sampling rate : 48.0 KHz
Compression mode : Lossy
Stream size : 123 MiB (18%)
Alignment : Aligned on interleaves
Interleave, duration : 24 ms (0.58 video frame)
Interleave, preload duration : 156 ms
Writing library : LAME3.98r
Encoding settings : -m j -V 4 -q 2 -lowpass 17 --abr 128




Young Albert enlists to service in WWI after his beloved horse, Joey, is sold to the cavalry.
Albert's hopeful journey takes him out of England and across Europe as the war rages on.



Jeremy Irvine... Albert Narracott
Peter Mullan... Ted Narracott
Emily Watson... Rose Narracott
Niels Arestrup... Grandfather
David Thewlis... Lyons








[/center]
Files:

Comments