Bat Shit Crazy 2011 DvDRip XviD Ac3 Feel-Free

Type: >
Size:n/a
Info:IMDB
Uploaded:Jan 1st, 1970
By:
Seeders:0
Leechers:1
Comments0
Info Hash:1518bfaae3cab432b6bbda1b7f8b3f5b364c0be3
Genre: Thriller
Language:English

www.imdb.com/title/tt1937100/


Source:NTSC DVDR-0MNiDVD Thanks!
Encoder:Tony


Format : AVI
Format/Info : Audio Video Interleave
File size : 1 009 MiB
Duration : 1h 23mn
Overall bit rate : 1 682 Kbps


Video
ID : 0
Format : MPEG-4 Visual
Format profile : Advanced Simple@L5
Format settings, BVOP : 1
Format settings, QPel : No
Format settings, GMC : No warppoints
Format settings, Matrix : Default (H.263)
Codec ID : XVID
Codec ID/Hint : XviD
Duration : 1h 23mn
Bit rate : 1 224 Kbps
Width : 640 pixels
Height : 368 pixels
Display aspect ratio : 16:9
Frame rate : 23.976 fps
Color space : YUV
Chroma subsampling : 4:2:0
Bit depth : 8 bits
Scan type : Progressive
Compression mode : Lossy
Bits/(Pixel*Frame) : 0.217
Stream size : 734 MiB (73%)
Writing library : XviD 1.2.1 (UTC 2008-12-04)


Audio
ID : 1
Format : AC-3
Format/Info : Audio Coding 3
Mode extension : CM (complete main)
Codec ID : 2000
Duration : 1h 23mn
Bit rate mode : Constant
Bit rate : 448 Kbps
Channel(s) : 2 channels
Channel positions : Front: L R
Sampling rate : 48.0 KHz
Bit depth : 16 bits
Compression mode : Lossy
Stream size : 269 MiB (27%)
Alignment : Aligned on interleaves
Interleave, duration : 42 ms (1.00 video frame)
Interleave, preload duration : 512 ms



Plot:
Is it real or a nightmare?
Files:

Comments