The.Woman.in.the.Fifth.2011.BRRip.AC3.HORiZON-ArtSubs

Type:Video > Movies
Size:1.53 GB
Tag(s):EthanHawkeKristinScottThomas
Info:IMDB
Spoken language(s):English
Uploaded:Mar 31st, 2012
By:lletaifTrusted
Seeders:3
Leechers:1
Comments6
Info Hash:0b492b6489de9a4c1b25c37c782d3ad91682fe44
Title: The Woman in the Fifth


Country: UK/2011


Language: English/French


Director: Pawel Pawlikowski


Writers: Douglas Kennedy (book), Pawel Pawlikowski (screenplay)


Stars: Ethan Hawke, Kristin Scott Thomas and Joanna Kulig


Plot: A college lecturer flees to Paris after a scandal costs him his job. In the City of Lights, he meets a widow who might be involved in a series of murders.


Imdb: www.imdb.com/title/tt1605777/


Rip Specs:


General
Complete name : The.Woman.in.the.Fifth.2011.BRRip.AC3.HORiZON-ArtSubs
Format : AVI
Format/Info : Audio Video Interleave
File size : 1.53 GiB
Duration : 1h 20mn
Overall bit rate : 2 731 Kbps
Writing application : FairUse Wizard - fairusewizard.com
Writing library : The best and REALLY easy backup tool


Video
ID : 0
Format : MPEG-4 Visual
Format profile : Advanced Simple@L5
Format settings, BVOP : 1
Format settings, QPel : No
Format settings, GMC : No warppoints
Format settings, Matrix : Default (MPEG)
Muxing mode : Packed bitstream
Codec ID : XVID
Codec ID/Hint : XviD
Duration : 1h 20mn
Bit rate : 2 465 Kbps
Width : 704 pixels
Height : 384 pixels
Display aspect ratio : 16:9
Frame rate : 25.000 fps
Color space : YUV
Chroma subsampling : 4:2:0
Bit depth : 8 bits
Scan type : Progressive
Compression mode : Lossy
Bits/(Pixel*Frame) : 0.365
Stream size : 1.38 GiB (90%)
Writing library : XviD 1.2.0.dev47 (UTC 2006-11-01)


Audio
ID : 1
Format : AC-3
Format/Info : Audio Coding 3
Mode extension : CM (complete main)
Codec ID : 2000
Duration : 1h 20mn
Bit rate mode : Constant
Bit rate : 256 Kbps
Channel(s) : 6 channels
Channel positions : Front: L C R, Side: L R, LFE
Sampling rate : 48.0 KHz
Bit depth : 16 bits
Compression mode : Lossy
Stream size : 147 MiB (9%)
Alignment : Split accross interleaves
Interleave, duration : 40 ms (1.00 video frame)
Interleave, preload duration : 500 ms
Files:

Comments

http://www.imdb.com/title/tt1605777/

 lletaifMar 31st, 2012

a?v?? it is a genuine copy?

abdi309Mar 31st, 2012

subs?!

nyskApr 2nd, 2012

Search everywhere and found no subs; anyone else have any luck?

joentokyoApr 5th, 2012

SEE THE OTHERS UPLOADS FROM LLETAIF: http://thepiratebay.se/user/lletaif SEE MY UPLOADS (NORIEGARJ): http://thepiratebay.se/user/noriegaRJ AND SEE THESE OTHERS UPLOADS TOO: http://thepiratebay.se/torrent/5735086/Le.Concert.2009.PROPER.DVDRip.XviD.HORiZON-ArtSubs http://thepiratebay.se/torrent/5731181/La.Derniere.Fugue.2010.FRENCH.DVDRIP.XviD.AC3-WTF http://thepiratebay.se/torrent/5728699/Chico.Xavier.2010.Brazilian.DVDRip.AC3.HORiZON-ArtSubs http://thepiratebay.se/torrent/5724201/Quelque.Chose.A.Te.Dire.FRENCH.DVDRiP.XViD-AYMO http://thepiratebay.se/torrent/5724152/Das.Fremde.in.Mir.German.2008.DVDRiP.XViD-WOMBAT http://thepiratebay.se/torrent/5693656/Buddenbrooks.German.AC3.DVDRip.XviD-CRUCiAL http://thepiratebay.se/torrent/5674623/Ajami.2009.LiMiTED.DVDRip.XviD-NODLABS http://thepiratebay.se/torrent/5674591/Partir.2009.RERIP.DVDRip.XviD.HORiZON-ArtSubs

 noriegaRJMay 3rd, 2012

thanks

bladedraculaMar 31st, 2013