21 Jump Street 2012 R5 NEW LiNE XViD - INSPiRAL

Type:Video > Movies
Size:1.39 GB
Tag(s):21JumpStreet2012R5NEWLiN21JumpStreet2012R5NEWLiN21JumpStreet2012R5NEWLiN21JumpStreet2012R5NEWLiN
Info:IMDB
Spoken language(s):English
Uploaded:May 1st, 2012
By:HackulusVIP
Seeders:144
Leechers:13
Comments165
Info Hash:245f9f9e5458748e7582a09883e7879c050be3d6
21 Jump Street 2012 R5 NEW LiNE XViD - INSPiRAL picture




TITLE:


21 Jump Street 2012 R5 NEW LiNE XViD - INSPiRAL


IMDB:

www.imdb.com/title/tt1232829/



SOURCES:


VIDEO - Lumx1 DVDR THANKS
AUDIO - RiPLEGENDZ THANKS
SUBS - ENG HARDCODED WHEN NEED


STATS:


Video
ID : 0
Format : MPEG-4 Visual
Format profile : Advanced Simple@L5
Format settings, BVOP : 2
Format settings, QPel : No
Format settings, GMC : No warppoints
Format settings, Matrix : Default (MPEG)
Muxing mode : Packed bitstream
Codec ID : XVID
Codec ID/Hint : XviD
Duration : 1h 45mn
Bit rate : 1 736 Kbps
Width : 720 pixels
Height : 304 pixels
Display aspect ratio : 2.35:1
Frame rate : 25.000 fps
Color space : YUV
Chroma subsampling : 4:2:0
Bit depth : 8 bits
Scan type : Progressive
Compression mode : Lossy
Bits/(Pixel*Frame) : 0.317
Stream size : 1.28 GiB (93%)
Writing library : XviD 64


Audio
ID : 1
Format : MPEG Audio
Format version : Version 1
Format profile : Layer 3
Codec ID : 55
Codec ID/Hint : MP3
Duration : 1h 45mn
Bit rate mode : Constant
Bit rate : 128 Kbps
Channel(s) : 2 channels
Sampling rate : 48.0 KHz
Compression mode : Lossy
Stream size : 96.6 MiB (7%)
Alignment : Split accross interleaves
Interleave, duration : 40 ms (1.00 video frame)
Interleave, preload duration : 500 ms



NOTES:


Ok here we go we our version which is not a re-encode of the dvdrip but ripped straight from the DVDR
The dvdr was ok but was a bit lifeless and also had a faint line 2pixels under the top black border.
Audio is new and different too all other releases and is 10x better aswell.


Video ....made a script too crop the dvd inc the 2 etxra pixels too remove that faint line,resized,changed contrast,brightness,chroma and rgb levels.
Also used a heavy noise filter and finally added some sharpness back into it.


Audio ....wow,fecking top line audio and even better after some lovin in AA.
Sync was pretty easy ....1 cut hey presto.





Files:

Comments

Watchable quality!

a25zkmizJun 1st, 2012

Video was almost unwatchable when streamed to my 55" Sony LED. Lots of pixelation. However audio was much better than the video quality which made for a decent viewing. I've seen other formats (x264) of this file size look great, so it must be the encoding.

winston26Jun 4th, 2012

great movie, thanks alot :)

peach94Jun 5th, 2012

@willytakum fuck you for not letting that die. don't bring it up. (Other people do NOT follow this chain. You have been warned)

Super_NinjaJun 6th, 2012

great movie

4209erJun 6th, 2012

SEED PLEASE

she05Jun 7th, 2012

anyone wanting to get rid of the protection/cinavia on ps3 just convert the file. i did it using iskysoft and it got rid of it straight away

ducky95Jun 7th, 2012

Thanks, really, for the upload. But AVI, no matter if it's DIVX, XVID or ARSEX, is so 1989! For portability's sake (not to mention A/V quality, and modernity), EVERYBODY STOP MAKING AVIs because they SUCK ASS!!

AlobarkuJun 12th, 2012

seed

apolloriseJun 28th, 2012

A-9 V-7

NotMyJobJul 14th, 2012

this movie is funny as shit i dont know what these dumb fucks have up there ass rating this movie A/10 V/10 M/10 perfect great looks great as well

InglewoodCali310Jul 26th, 2012

thanks, hackulus, for the great upld. I just wanted to say that this "new universal scoring system" doesn't seem like a good idea. The A/V system is just fine. With the new system there is one number. What if the video is amazing but the audio blows? It would seem the only upside is that it takes less time to type the one-digit quality number.

Athan485Jul 29th, 2012

ty

Nlol3Sep 15th, 2012

Great quality, A10 V9 - thnx to the uploader! Movie was OK as i expected it to be! Storyline is intelligent and entertaining and acters were OK! I usually watch all the movies at film.remerick.com because they have HD's but they didn't have this one so im happy to have piratebay :) Thnx once again for this great share!

joe365Feb 13th, 2013